MY STORAGE

MY STORAGE

My All Collection
 
HomePortalGalleryFAQSearchMemberlistUsergroupsRegisterLog in

Share | 
 

 Ice Age A Mammoth Christmas 2011 DVDRip XviD-aAF

View previous topic View next topic Go down 
AuthorMessage
Darryl
Administrator
Administrator


Posts : 396
Reputation : 34
Join date : 2010-05-17
Age : 33
Location : Philippines

PostSubject: Ice Age A Mammoth Christmas 2011 DVDRip XviD-aAF   Mon Dec 05, 2011 10:05 pm

[FS+FSC+FJ]Ice Age A Mammoth Christmas 2011 DVDRip XviD-aAF

>>>IMDB Ratings: 6.5/10 from 606 users<<<





Code:

http://www.imdb.com/title/tt2100546/



Quote:


When Sid (John Leguizamo) accidentally destroys Manny (Ray Romano)’s
heirloom Christmas rock and ends up on Santa’s naughty list, he leads a
hilarious quest to the North Pole to make things right and ends up
making things much worse. Now it’s up to Manny and his prehistoric posse
to band together and save Christmas for the entire world!













Quote:


Language: English
Genre: Animation

General
Complete name: aaf-ice.age.a.mammoth.christmas.2011.dvdrip.xvid.avi
Format : AVI
Format/Info: Audio Video Interleave
File size: 175 MiB
Duration : 24mn 27s
Overall bit rate mode: Variable
Overall bit rate : 1 000 Kbps
Writing application: VirtualDubMod 1.5.10.2 (build 2540/release)
Writing library: VirtualDubMod build 2540/release

Video
ID : 0
Format : MPEG-4 Visual
Format profile : Advanced Simple@L5
Format settings, BVOP: 2
Format settings, QPel: No
Format settings, GMC : No warppoints
Format settings, Matrix: Default (H.263)
Codec ID : XVID
Codec ID/Hint: XviD
Duration : 24mn 27s
Bit rate : 859 Kbps
Width: 624 pixels
Height : 352 pixels
Display aspect ratio : 16:9
Frame rate : 25.000 fps
Color space: YUV
Chroma subsampling : 4:2:0
Bit depth: 8 bits
Scan type: Progressive
Compression mode : Lossy
Bits/(Pixel*Frame) : 0.156
Stream size: 150 MiB (86%)
Writing library: XviD 64

Audio
ID : 1
Format : MPEG Audio
Format version : Version 1
Format profile : Layer 3
Mode : Joint stereo
Mode extension : MS Stereo
Codec ID : 55
Codec ID/Hint: MP3
Duration : 24mn 27s
Bit rate mode: Variable
Bit rate : 128 Kbps
Channel(s) : 2 channels
Sampling rate: 48.0 KHz
Compression mode : Lossy
Stream size: 22.4 MiB (13%)
Alignment: Aligned on interleaves
Interleave, duration : 24 ms (0.60 video frame)
Interleave, preload duration : 144 ms
Writing library: LAME3.90.
Encoding settings: -m j -V 4 -q 2 -lowpass 17.6 --abr 128





Code:

http://www.fileserve.com/file/pGtD2Gr/aaf-ice.age.a.mammoth.christmas.2011.dvdrip.xvid.avi



Code:

http://www.filesonic.com/file/4104509875/aaf-ice.age.a.mammoth.christmas.2011.dvdrip.xvid.avi

Filejungle Download

Code:

http://www.filejungle.com/f/j3ysqW/aaf-ice.age.a.mammoth.christmas.2011.dvdrip.xvid.avi


_________________

[You must be registered and logged in to see this link.] [You must be registered and logged in to see this link.]
[You must be registered and logged in to see this link.] [You must be registered and logged in to see this link.]
Back to top Go down
View user profile http://master.chiefs.tv
 
Ice Age A Mammoth Christmas 2011 DVDRip XviD-aAF
View previous topic View next topic Back to top 
Page 1 of 1
 Similar topics
-
» Scorned (1994) DvDrip-XviD
» A Job for Jenna (2011) DVDRip 350MB 18+
» [FS]That 70's Show Season's 1-8 + Bonus EP's DVDRip XviD,avi(1 LInk ep's)
» DiAMOND.1 LINK MOViE.COLLECTiON.DVDRip
» Tom And Jerry Meet Sherlock Holmes (2009) DVDRip XviD

Permissions in this forum:You cannot reply to topics in this forum
MY STORAGE  :: ETERTAINMENT :: MOVIES LOCAL & INTERNATIONAL-
Jump to:  
Free forum | © phpBB | Free forum support | Contact | Report an abuse | Free forum